<?xml version="1.0" standalone="no"?>
<!DOCTYPE svg PUBLIC "-//W3C//DTD SVG 1.1//EN" "http://www.w3.org/Graphics/SVG/1.1/DTD/svg11.dtd" >
<svg xmlns="http://www.w3.org/2000/svg">
  <metadata>Created by iconfont</metadata>
  <defs>
  <font id="iconfont" horiz-adv-x="1024">
    <font-face
      font-family="iconfont"
      font-weight="400"
      font-stretch="normal"
      units-per-em="1024"
      ascent="896"
      descent="-128"
    />
      <missing-glyph />
      
      <glyph glyph-name="yunxu" unicode="&#59099;" d="M42.666667 266.24s135.253333-48.512 217.130666-139.221333L412.970667-42.666667s61.696 131.882667 224.853333 308.906667c163.114667 176.981333 268.928 224.810667 268.928 224.810667s-12.928 73.6-14.933333 135.808C888.746667 725.205333 893.525333 810.666667 893.525333 810.666667s-129.322667-24.234667-295.338666-271.146667c-166.016-246.869333-198.4-352.64-198.4-352.64L280.746667 429.354667 42.666667 266.197333z"  horiz-adv-x="1024" />
      
      <glyph glyph-name="daohang" unicode="&#59096;" d="M192 608a32 32 0 0 0 32 32h576a32 32 0 1 0 0-64H224a32 32 0 0 0-32 32z m0-224a32 32 0 0 0 32 32h576a32 32 0 1 0 0-64H224a32 32 0 0 0-32 32z m224-224a32 32 0 0 0 32 32h352a32 32 0 1 0 0-64H448a32 32 0 0 0-32 32z"  horiz-adv-x="1024" />
      
      <glyph glyph-name="choucang" unicode="&#59097;" d="M462.805333 739.797333L368.554667 548.864 157.866667 518.229333a54.784 54.784 0 0 1-30.336-93.397333l152.448-148.608-36.010667-209.877333c-2.005333-11.861333-0.085333-24.064 5.546667-34.730667l2.645333-4.565333a54.741333 54.741333 0 0 1 71.253333-18.432l188.501334 99.072 188.416-99.072a54.741333 54.741333 0 0 1 79.488 57.728l-36.010667 209.877333 152.448 148.565333a54.698667 54.698667 0 0 1-30.293333 93.44l-210.773334 30.634667-94.165333 190.933333a54.784 54.784 0 0 1-98.218667 0z"  horiz-adv-x="1024" />
      
      <glyph glyph-name="shoucang2" unicode="&#59098;" d="M462.805333 739.797333L368.554667 548.864 157.866667 518.229333a54.784 54.784 0 0 1-30.336-93.397333l152.448-148.608-36.010667-209.877333c-2.005333-11.861333-0.085333-24.064 5.546667-34.730667l2.645333-4.565333a54.741333 54.741333 0 0 1 71.253333-18.432l188.501334 99.072 188.416-99.072a54.741333 54.741333 0 0 1 79.488 57.728l-36.010667 209.877333 152.448 148.565333a54.698667 54.698667 0 0 1-30.293333 93.44l-210.773334 30.634667-94.165333 190.933333a54.784 54.784 0 0 1-98.218667 0z m49.066667-65.493333l77.866667-157.738667 2.858666-5.290666a72.96 72.96 0 0 1 52.138667-34.688l174.08-25.258667-125.952-122.837333-4.138667-4.352a73.002667 73.002667 0 0 1-16.853333-60.245334l29.696-173.354666-172.672 90.752-4.096 1.792a36.48 36.48 0 0 1-29.909333-1.792l-172.672-90.752 29.738666 173.397333 0.768 5.888a73.002667 73.002667 0 0 1-21.76 58.709333l-125.994666 122.88 174.165333 25.216a73.002667 73.002667 0 0 1 54.912 39.936l77.866667 157.738667z"  horiz-adv-x="1024" />
      
      <glyph glyph-name="faxian" unicode="&#59095;" d="M412.704 754.816C617.6 809.696 828.16 688.128 883.008 483.296 937.92 278.4 816.32 67.84 611.52 12.992 406.624-41.92 196.064 79.648 141.184 284.48 86.304 489.376 207.872 699.936 412.704 754.816z m429.568-359.68a409.792 409.792 0 0 0-244.96-183.712C443.008 170.08 285.76 222.24 185.6 333.12c1.792-11.584 4.224-23.168 7.328-34.72 47.232-176.288 228.416-280.896 404.672-233.664 151.52 40.576 249.92 180.096 244.672 330.432z m-16.128 91.36c-54.048 165.856-229.088 262.208-399.552 216.544-136.544-36.576-230.016-153.504-243.328-286.272l4.8 2.976a357.568 357.568 0 0 1 288.384-167.68V515.52l-96.544-98.368a29.12 29.12 0 0 0-41.504 0 30.208 30.208 0 0 0 0 42.304l167.36 170.336 167.424-170.336a30.208 30.208 0 0 0 0-42.304 29.12 29.12 0 0 0-41.536 0l-96.544 98.368v-260.96a356.32 356.32 0 0 1 291.04 231.936z"  horiz-adv-x="1024" />
      
      <glyph glyph-name="baimo" unicode="&#59094;" d="M872.288 592v-416L512-32 151.712 176v416L512 800l360.288-208zM226.816 191.808L486.4 41.92v299.776l-259.584-149.888zM537.6 41.92l256.128 147.904-256.128 147.84v-295.744zM559.68 384l261.344-150.88v301.76L559.712 384z m-356.8-146.88L457.376 384l-254.4 146.88v-293.76z m23.872 339.136l259.616-149.92v299.84L226.784 576.224z m310.816-145.92l256.16 147.872L537.6 726.144v-295.808z"  horiz-adv-x="1024" />
      
      <glyph glyph-name="like" unicode="&#59092;" d="M765.237009 444.311079h-161.524772c62.570572 231.163502-43.13314 242.953419-43.13314 242.953419-44.784308 0-35.514593-35.427689-38.903832-41.337132 0-113.061547-120.071769-201.616287-120.07177-201.616287v-320.587277c0-31.6329 43.162107-43.046236 60.050369-43.046237h242.692709c22.826671 0 41.424036 59.905529 41.424036 59.90553 60.050368 204.165459 60.050368 264.911056 60.050368 264.911055 0 42.177201-40.583968 38.816929-40.583968 38.816929z m-429.883003-0.115872h-96.752644c-19.987822 0-20.2775-19.611239-20.2775-19.611239l19.987821-323.310256c0-20.567179 20.596147-20.567179 20.596147-20.567179h83.717108c17.43865 0 17.293811 13.614893 17.293811 13.614893V419.659433c0 24.825454-24.593711 24.506807-24.593711 24.506807z"  horiz-adv-x="1024" />
      
      <glyph glyph-name="dislike" unicode="&#59093;" d="M258.762991 323.688921h161.524772c-62.570572-231.163502 43.13314-242.953419 43.13314-242.953419 44.784308 0 35.514593 35.427689 38.903832 41.337132 0 113.061547 120.042801 201.616287 120.042802 201.616287V644.276198c0 31.6329-43.104172 43.046236-60.021401 43.046237H319.653427c-22.826671 0-41.424036-59.905529-41.424036-59.90553-60.050368-204.165459-60.050368-264.911056-60.050368-264.911055 0-42.177201 40.583968-38.816929 40.583968-38.816929z m429.883003 0.115872h96.752644c19.987822 0 20.2775 19.611239 20.2775 19.611239l-19.987821 323.310256c0 20.567179-20.596147 20.567179-20.596147 20.567179h-83.717108c-17.43865 0-17.293811-13.614893-17.293811-13.614893v-325.366974c0-24.825454 24.593711-24.506807 24.593711-24.506807z"  horiz-adv-x="1024" />
      
      <glyph glyph-name="sibianmian" unicode="&#59090;" d="M925.056 625.834667l-4.821333-594.005334c-147.370667 69.930667-288 104.704-421.845334 104.234667-133.888-0.426667-272.213333-33.962667-414.976-100.48L83.029333 626.56c128.384 65.834667 262.229333 99.072 401.493334 99.626667 139.306667 0.64 286.122667-32.768 440.533333-100.352zM332.288 295.978667a1232.213333 1232.213333 0 0 1-197.12-55.893334v-125.866666a1091.626667 1091.626667 0 0 0 199.168 58.026666l-2.048 123.733334z m-2.986667 181.034666c-70.912-14.933333-140.672-35.2-208.64-60.586666l14.336 5.12 0.085334-126.378667c68.693333 24.405333 134.144 42.154667 196.437333 53.333333L329.344 477.013333zM134.826667 594.346667l0.128-117.76a1445.76 1445.76 0 0 0 193.493333 53.077333l-2.133333 128.597333A840.96 840.96 0 0 1 134.826667 594.346667z m482.901333-295.253334a904.234667 904.234667 0 0 1-117.546667 11.477334A747.52 747.52 0 0 1 384 304.298667l2.048-123.946667a853.376 853.376 0 0 0 228.821333-0.256l2.901334 118.997333z m4.736 190.165334c-37.162667 5.12-73.685333 7.68-109.525333 7.68-41.941333 0-85.973333-3.584-132.010667-10.666667l2.218667-129.877333c40.96 5.034667 80.512 6.997333 118.485333 5.973333 37.333333-1.066667 76.501333-4.693333 117.376-11.008l3.456 137.898667z m-137.685333 185.173333a819.2 819.2 0 0 1-106.794667-7.424l2.133333-128.426667a913.834667 913.834667 0 0 0 132.821334 10.154667c36.352 0.042667 73.344-2.474667 110.848-7.424l2.986666 121.685333c-46.933333 7.68-94.421333 11.52-141.994666 11.434667z m385.194666-441.6a1590.784 1590.784 0 0 1-200.661333 56.746667l-2.858667-117.888c69.333333-13.653333 137.173333-34.005333 202.581334-60.8l0.938666 121.984z m1.578667 187.392a1095.253333 1095.253333 0 0 1-197.504 60.288l-3.413333-138.325333c67.712-13.866667 134.4-32.128 199.808-54.698667l1.109333 132.736z m1.408 171.392A1175.68 1175.68 0 0 1 678.4 653.141333l-2.986667-120.149333c67.157333-13.056 132.992-32.213333 196.693334-57.216l0.896 115.84z"  horiz-adv-x="1024" />
      
      <glyph glyph-name="sanjiaomian" unicode="&#59091;" d="M981.333333-2.261333H42.666667L512 810.666667l469.333333-812.928zM418.133333 48.768h187.733334l-93.866667 162.56-93.866667-162.56z m272.768 0h202.112l-101.077333 175.018667-101.034667-175.018667z m-559.914666 0h202.112l-101.12 175.018667-100.992-175.018667z m240.768 35.072l93.866666 162.56h-187.733333l93.866667-162.56z m280.490666 0l93.866667 162.56h-187.733333l93.866666-162.56zM274.56 297.386667h195.114667L372.053333 466.346667l-97.536-168.96z m279.722667 0h195.157333l-97.578667 168.96-97.578666-168.96zM512 326.144l93.866667 162.56H418.133333l93.866667-162.56zM414.464 539.690667h195.072L512 708.693333 414.464 539.733333z"  horiz-adv-x="1024" />
      
      <glyph glyph-name="buxian" unicode="&#59089;" d="M512 714.432C329.504 714.432 181.568 566.496 181.568 384S329.504 53.568 512 53.568 842.432 201.504 842.432 384 694.496 714.432 512 714.432zM128 384C128 596.064 299.936 768 512 768s384-171.936 384-384-171.936-384-384-384S128 171.936 128 384zM512 768c212.064 0 384-171.936 384-384s-171.936-384-384-384S128 171.936 128 384 299.936 768 512 768z m311.808-493.28a409.728 409.728 0 0 0-279.776-109.92c-42.688 0-83.808 6.592-122.496 18.624a358.528 358.528 0 0 1 117.216-128.672 330.496 330.496 0 0 1 285.056 219.968z m-642.176 106.88c1.12-159.008 114.56-291.296 264.96-321.504a411.392 411.392 0 0 0-98.048 154.112 412.992 412.992 0 0 0-166.912 167.424z m640.768 115.84A409.792 409.792 0 0 0 544 388.8c-56.064 0-109.504 11.296-158.176 31.616a358.304 358.304 0 0 1 7.488-167.808 355.328 355.328 0 0 1 150.752-33.408c124.704 0 234.464 64 298.272 160.96l0.096 3.84c0 39.872-7.04 78.08-20 113.472z m-599.808 46.08c-9.92-18.016-18.208-37.024-24.672-56.864l0.544 0.128a357.024 357.024 0 0 1 130.88-195.68 414.464 414.464 0 0 0 6.176 154.432 413.12 413.12 0 0 0-112.928 97.952zM629.76 692.704a357.696 357.696 0 0 1-229.376-219.456c43.936-19.36 92.512-30.08 143.616-30.08a355.52 355.52 0 0 1 253.984 106.304 331.392 331.392 0 0 1-168.224 143.232zM512 714.4c-104 0-196.8-48.064-257.344-123.2a358.72 358.72 0 0 1 97.28-91.936 412.672 412.672 0 0 0 187.264 213.984c-8.96 0.736-18.048 1.152-27.2 1.152z"  horiz-adv-x="1024" />
      
      <glyph glyph-name="Frame" unicode="&#59088;" d="M577.024 800.8192a65.024 65.024 0 1 1-130.048 0v-351.744H95.0784a65.024 65.024 0 1 1 0-130.1504H446.976v-351.744a65.024 65.024 0 1 1 130.0992 0v351.744h351.744a65.024 65.024 0 1 1 0 130.0992h-351.744V800.8192z"  horiz-adv-x="1024" />
      
      <glyph glyph-name="arrow-down" unicode="&#59073;" d="M512 257.024a43.946667 43.946667 0 0 0-29.866667 11.733333l-196.266666 196.266667a40.448 40.448 0 0 0-11.733334 29.866667c0 12.117333 3.882667 22.058667 11.733334 29.866666a40.448 40.448 0 0 0 29.866666 11.733334c12.074667 0 22.016-3.882667 29.866667-11.733334l166.4-166.4 166.4 166.4a40.448 40.448 0 0 0 29.866667 11.733334c12.074667 0 22.016-3.882667 29.866666-11.733334a40.448 40.448 0 0 0 11.733334-29.866666 40.448 40.448 0 0 0-11.733334-29.866667l-196.266666-196.266667c-4.266667-4.266667-8.874667-7.253333-13.866667-9.045333a46.933333 46.933333 0 0 0-16-2.688z"  horiz-adv-x="1024" />
      
      <glyph glyph-name="bianji" unicode="&#59076;" d="M53.2992 170.7008V597.2992a245.3504 245.3504 0 0 0 245.3504 245.3504h170.6496a32 32 0 0 0 0-64H298.6496a181.3504 181.3504 0 0 1-181.3504-181.3504v-426.5984a181.3504 181.3504 0 0 1 181.3504-181.4016h426.6496a181.3504 181.3504 0 0 1 181.3504 181.4016v170.5984a32 32 0 1 0 64 0v-170.5984a245.3504 245.3504 0 0 0-245.3504-245.4016H298.6496a245.3504 245.3504 0 0 0-245.3504 245.4016zM776.448 852.736c47.5136 4.608 94.5664-16.1792 141.312-62.976 46.848-46.7456 67.6864-93.9008 63.0272-141.3632-4.5056-45.824-32.1536-83.8144-62.976-114.688l-336.5376-336.5376a142.6944 142.6944 0 0 0-34.304-23.552 134.7584 134.7584 0 0 0-39.7824-13.312l-128.4608-18.3296-0.1024-0.0512c-31.6928-4.352-61.952 4.3008-83.2 25.4464-21.2992 21.1968-30.0032 51.5072-25.3952 83.3536l18.3296 128.4096a134.656 134.656 0 0 0 13.312 40.0896c6.144 12.1344 14.3872 24.7808 23.9104 34.304l336.2304 336.2304c30.8224 30.8736 68.8128 58.4704 114.6368 62.976z m6.2464-63.6928c-23.7056-2.3552-48.4864-17.3568-75.6224-44.544L370.8416 408.2688a73.728 73.728 0 0 1-11.9296-17.8176c-4.096-8.192-6.5024-15.6672-7.168-20.2752v-0.1024l-18.3296-128.4096-0.0512-0.1536c-2.1504-14.6432 2.1504-23.7568 7.168-28.7744 5.12-5.0688 14.4384-9.3696 29.184-7.424l128.4096 18.3808c4.4032 0.6144 11.776 2.9696 20.0704 7.168 8.2432 4.096 14.848 8.7552 18.4832 12.288l335.872 335.872c27.136 27.136 42.24 51.8656 44.544 75.6224 2.1504 22.016-5.9904 51.3536-44.544 89.856-38.5536 38.5536-67.7888 46.6944-89.856 44.544zM869.1712 484.2496c-161.6896-92.416-345.0368 80.9984-261.7344 247.6032l3.9424 7.7824a32 32 0 0 0 57.1904-28.6208l-3.9424-7.8336c-54.9376-109.9264 66.048-224.4096 172.8-163.4304a31.9488 31.9488 0 1 0 31.744-55.5008z"  horiz-adv-x="1024" />
      
      <glyph glyph-name="shanchu" unicode="&#59077;" d="M373.2992 170.6496V469.2992a32 32 0 1 0 64 0v-298.6496a32 32 0 1 0-64 0zM586.7008 170.6496V469.2992a32 32 0 1 0 64 0v-298.6496a32 32 0 1 0-64 0zM512.0512 842.6496c116.5312 0 223.5392-69.4784 242.3296-170.7008H896a32 32 0 1 0 0-64h-53.3504V128a202.7008 202.7008 0 0 0-202.7008-202.6496h-256A202.6496 202.6496 0 0 0 181.2992 128V607.9488H128a32 32 0 0 0 0 64h141.6704C288.512 773.1712 395.52 842.6496 512 842.6496zM245.2992 128a138.6496 138.6496 0 0 1 138.6496-138.6496h256A138.752 138.752 0 0 1 778.6496 128V607.9488H245.2992V128z m266.752 650.752c-90.7264 0-157.7984-49.0496-176.2304-106.752h352.4096c-18.432 57.7024-85.4528 106.7008-176.1792 106.7008z"  horiz-adv-x="1024" />
      
      <glyph glyph-name="package-4" unicode="&#59074;" d="M740.437333 155.562667a21.333333 21.333333 0 0 0-30.165333 0l-30.165333 30.165333-30.208-30.165333a21.333333 21.333333 0 0 0-30.72 29.653333l0.554666 0.512 30.165334 30.165333-30.165334 30.208a21.333333 21.333333 0 0 0 29.653334 30.72l0.512-0.554666 30.208-30.165334 30.165333 30.165334a21.333333 21.333333 0 0 0 30.72-29.653334l-0.554667-0.512-30.165333-30.208 30.165333-30.165333c8.362667-8.277333 8.448-21.76 0.170667-30.08l-0.170667-0.085333zM555.434667 212.992a127.36 127.36 0 0 0 203.178666 102.485333 256 256 0 1 1-178.133333-178.176 126.976 126.976 0 0 0-25.045333 75.690667zM533.333333 383.573333a21.333333 21.333333 0 0 0-6.272-15.104l-64.085333-64.128a21.333333 21.333333 0 0 0-30.208 30.250667l57.856 57.856V490.325333a21.333333 21.333333 0 1 0 42.709333 0v-106.837333z"  horiz-adv-x="1024" />
      
      <glyph glyph-name="package-2" unicode="&#59075;" d="M469.333333 149.333333a21.333333 21.333333 0 0 0-21.333333-21.333333h-170.666667a21.333333 21.333333 0 0 0 0 42.666667h170.666667a21.333333 21.333333 0 0 0 21.333333-21.333334zM277.333333 213.333333h128a21.333333 21.333333 0 0 1 0 42.666667h-128a21.333333 21.333333 0 0 1 0-42.666667zM277.333333 298.666667h85.333334a21.333333 21.333333 0 0 1 0 42.666666h-85.333334a21.333333 21.333333 0 0 1 0-42.666666zM512 640a256 256 0 0 1-256-256c0-1.28 0.170667-2.56 0.213333-3.84 6.741333 2.474667 13.909333 3.754667 21.12 3.84h85.333334a63.786667 63.786667 0 0 0 59.306666-87.808 63.488 63.488 0 0 0 42.666667-85.333333 62.848 62.848 0 0 0 43.52-82.688c1.28 0 2.56-0.170667 3.84-0.170667a256 256 0 1 1 0 512z m79.104-335.104a21.333333 21.333333 0 0 0-30.165333 0l-64 64A21.333333 21.333333 0 0 0 490.666667 384V490.666667a21.333333 21.333333 0 0 0 42.666666 0v-97.834667l57.770667-57.770667a21.333333 21.333333 0 0 0 0-30.165333z"  horiz-adv-x="1024" />
      
      <glyph glyph-name="usage" unicode="&#59078;" d="M728.3712-18.944H314.5216a196.3008 196.3008 0 0 0-196.096 196.096V590.8992a196.3008 196.3008 0 0 0 196.096 196.096h413.7984a196.3008 196.3008 0 0 0 196.096-196.096v-413.696a196.4032 196.4032 0 0 0-196.096-196.1984zM314.5216 715.264a124.5696 124.5696 0 0 1-124.416-124.416v-413.696a124.5696 124.5696 0 0 1 124.416-124.5184h413.7984a124.5696 124.5696 0 0 1 124.416 124.4672V590.8992a124.5696 124.5696 0 0 1-124.416 124.416H314.5216zM521.4208 137.8816a35.84 35.84 0 0 0-35.84 35.84v332.288a35.84 35.84 0 0 0 71.68 0v-332.288a35.84 35.84 0 0 0-35.84-35.84z m-170.5984 0a35.84 35.84 0 0 0-35.84 35.84v141.824a35.84 35.84 0 0 0 71.68 0v-141.824a35.84 35.84 0 0 0-35.84-35.84z m341.1968 0a35.84 35.84 0 0 0-35.84 35.84V390.0416a35.84 35.84 0 0 0 71.68 0v-216.32a35.84 35.84 0 0 0-35.84-35.84z"  horiz-adv-x="1024" />
      
      <glyph glyph-name="package-3" unicode="&#59079;" d="M660.309333 149.333333h-0.725333a39.936 39.936 0 0 0-28.672 12.8l-40.917333 40.106667a21.333333 21.333333 0 0 0 0.469333 30.165333l0.085333 0.085334a21.333333 21.333333 0 0 0 30.08-0.512l39.68-38.912 71.253334 71.253333a21.333333 21.333333 0 0 0 30.208-30.122667l-72.96-72.96a39.893333 39.893333 0 0 0-28.501334-11.946666zM555.434667 212.992a127.36 127.36 0 0 0 203.178666 102.485333 256 256 0 1 1-178.133333-178.176 126.976 126.976 0 0 0-25.045333 75.690667zM533.333333 383.573333a21.333333 21.333333 0 0 0-6.272-15.104l-64.085333-64.128a21.333333 21.333333 0 0 0-30.208 30.250667l57.856 57.856V490.325333a21.333333 21.333333 0 1 0 42.709333 0v-106.837333z"  horiz-adv-x="1024" />
      
      <glyph glyph-name="concunnrency" unicode="&#59080;" d="M256 529.92c0-17.28 6.613333-34.389333 19.498667-50.346667 12.842667-15.957333 31.701333-30.506667 55.466666-42.666666a336.128 336.128 0 0 1 83.072-28.586667c31.061333-6.570667 64.341333-9.984 97.962667-9.984 33.621333 0 66.901333 3.413333 97.962667 10.026667a336.042667 336.042667 0 0 1 83.072 28.501333c23.765333 12.202667 42.624 26.752 55.466666 42.666667 12.885333 16 19.498667 33.109333 19.498667 50.346666 0 34.901333-26.965333 68.394667-74.965333 93.013334-48.042667 24.746667-113.152 38.570667-181.034667 38.570666-67.882667 0-132.992-13.866667-181.034667-38.528C282.965333 598.272 256 564.778667 256 529.92z m256-171.136c-104.533333 0-194.474667 32.213333-234.24 78.378667-13.994667-16.256-21.76-34.261333-21.76-53.162667 0-72.661333 114.602667-131.584 256-131.584s256 58.88 256 131.584c0 18.901333-7.765333 36.906667-21.76 53.162667-39.765333-46.165333-129.706667-78.421333-234.24-78.421334z m0-149.546667c-105.941333 0-196.821333 33.066667-235.776 80.213334-13.013333-15.786667-20.224-33.152-20.224-51.370667 0-72.661333 114.602667-131.541333 256-131.541333s256 58.88 256 131.541333c0 18.218667-7.210667 35.584-20.224 51.370667-38.954667-47.146667-129.834667-80.213333-235.776-80.213334z"  horiz-adv-x="1024" />
      
      <glyph glyph-name="total" unicode="&#59081;" d="M395.861333 432.64a26.368 26.368 0 0 1 26.282667 26.282667V603.221333a26.368 26.368 0 0 1-26.282667 26.282667 26.368 26.368 0 0 1-26.282666-26.282667v-144.298666c0-14.464 11.861333-26.24 26.282666-26.24z m243.157334 2.474667a26.325333 26.325333 0 0 1 26.24 26.24V605.610667a26.368 26.368 0 0 1-26.24 26.282666 26.368 26.368 0 0 1-26.282667-26.282666v-144.213334c0-14.506667 11.861333-26.282667 26.282667-26.282666zM722.986667 575.232h-53.034667v-111.274667c0-19.754667-14.08-35.882667-31.317333-35.882666-17.28 0-31.36 16.128-31.36 35.84v111.36H426.624v-115.072c0-19.754667-14.08-35.84-31.36-35.84-17.237333 0-31.36 16.085333-31.36 35.84V575.232H301.056C276.266667 575.232 256 552.106667 256 523.690667v-336.042667c0-28.330667 20.266667-51.541333 45.056-51.541333h421.888c24.789333 0 45.056 23.210667 45.056 51.541333V523.690667c0 28.288-20.266667 51.541333-45.013333 51.541333z m-87.04-231.978667v-0.042666l-132.565334-123.562667-0.64-0.554667a27.776 27.776 0 0 0-18.858666-8.405333 21.674667 21.674667 0 0 0-16.128 6.229333 31.872 31.872 0 0 0-5.12 5.461334l-82.56 88.576c-7.509333 12.842667-6.229333 25.984 3.413333 34.901333 11.989333 11.221333 25.130667 11.562667 34.986667 0.938667l67.072-71.936 114.56 106.794666c17.024 11.306667 32.597333 12.373333 41.514666 2.730667 11.221333-11.989333 9.088-27.434667-5.632-41.130667z"  horiz-adv-x="1024" />
      
      <glyph glyph-name="resource" unicode="&#59082;" d="M811.9296 307.9168a27.648 27.648 0 0 0 19.2-7.8336c5.12-4.9152 8.192-11.6736 8.6016-18.7904v-17.4592c8.2944-2.6112 16.1792-6.3488 23.5008-11.0592 7.68-4.9152 13.1072-9.728 16.5376-13.2608l2.8672-3.072 0.1536-0.2048a28.5184 28.5184 0 0 0-3.0208-39.168 27.5456 27.5456 0 0 0-38.7072 2.048 35.328 35.328 0 0 1-7.2704 5.8368l-0.3072 0.256a39.2704 39.2704 0 0 1-15.8208 6.0416l-5.632 0.4608c-9.0624 0-16.2304-3.3792-19.7632-7.3728l-0.3072-0.4096a6.8608 6.8608 0 0 1-1.8944-5.0176c0.256-1.792 0.9728-3.9936 5.0688-7.5776 4.7104-4.1472 12.7488-9.216 26.4704-16.5376l6.3488-3.3792h0.0512c21.3504-11.4176 34.56-20.0704 43.776-29.5936v-0.0512c9.1136-9.472 14.1824-19.8656 16.4864-32.8704l0.768-5.7856c1.792-16.5376-3.072-32.512-13.568-45.8752l-0.1536-0.1024a78.1312 78.1312 0 0 0-35.584-24.576v-17.1008a28.4672 28.4672 0 0 0-7.9872-19.8144 27.5968 27.5968 0 0 0-39.4752 0 28.4672 28.4672 0 0 0-8.0384 19.8144v16.9472a95.232 95.232 0 0 0-23.6032 11.0592 86.9376 86.9376 0 0 0-19.1488 16.128l-0.2048 0.1536a28.5696 28.5696 0 0 0 2.7136 39.5776 27.4944 27.4944 0 0 0 39.424-2.7648l0.5632-0.6144a50.432 50.432 0 0 1 6.3488-4.864 39.424 39.424 0 0 1 21.6064-6.6048 26.624 26.624 0 0 1 19.7632 7.424l0.3072 0.3584 0.8704 1.0752a7.0144 7.0144 0 0 1 1.024 3.9424c-0.3072 1.792-1.024 3.9424-5.12 7.5776-4.6592 4.096-12.6976 9.216-26.4192 16.5376l-6.4 3.328c-21.3504 11.4176-34.6112 20.0704-43.8272 29.6448a61.5424 61.5424 0 0 0-17.2544 38.6048l-0.3584 6.1952c-0.1536 14.336 4.7104 28.0576 13.9264 39.68l4.096 4.6592c8.4992 9.0112 19.456 15.872 31.6416 20.0704v17.7664a28.4672 28.4672 0 0 0 8.6016 18.7392 27.648 27.648 0 0 0 19.1488 7.8336zM420.864 755.2a107.2128 107.2128 0 0 0 81.2544-37.2736h238.8992a163.1232 163.1232 0 0 0 163.0208-158.3104l0.0512-4.7616v-15.6672h-0.2048a32.768 32.768 0 0 0 0.2048-3.84v-203.6736a221.2864 221.2864 0 0 1-65.2288 13.1584V502.7328H592.384a107.2128 107.2128 0 0 0-99.4304 67.2768l-1.5872 4.2496-30.976 87.7056a41.984 41.984 0 0 1-39.5264 28.0064H263.7824a97.8944 97.8944 0 0 1-97.8944-97.792v-410.112c0-54.0672 43.8272-97.9456 97.8944-97.9456h375.9616c12.0832-25.088 30.0544-47.36 52.3776-65.2288H263.7824a163.1744 163.1744 0 0 0-163.1232 163.1232v410.112a163.1232 163.1232 0 0 0 163.1232 163.1232H420.864z m25.6-484.6592a32.6656 32.6656 0 0 0 2.6624-65.1264l-2.6624-0.1024H297.3696a32.6656 32.6656 0 0 0-2.7136 65.1264l2.7136 0.1024H446.464z m106.4448 325.4272a41.984 41.984 0 0 1 36.352-27.904l3.1232-0.1024h245.6064a97.9456 97.9456 0 0 1-92.9792 84.6848h-212.1728L552.96 595.968z"  horiz-adv-x="1024" />
      
      <glyph glyph-name="tips" unicode="&#59083;" d="M510.208 804.992a420.992 420.992 0 1 1 0-841.984 420.992 420.992 0 0 1 0 841.984z m0-646.4a49.024 49.024 0 1 0 0.192 97.984 49.024 49.024 0 0 0-0.192-97.984z m49.088 212.224a49.088 49.088 0 0 0-98.176 0V599.36a49.088 49.088 0 0 0 98.176 0v-228.544z"  horiz-adv-x="1024" />
      
      <glyph glyph-name="success" unicode="&#59084;" d="M554.666667 384a42.666667 42.666667 0 0 0-42.666667 42.666667V618.666667a20.053333 20.053333 0 0 1-21.333333 20.48 256 256 0 1 1 276.48-276.48 20.053333 20.053333 0 0 1-20.48 21.333333H554.666667zM544 613.845333c0 12.8 11.306667 22.826667 23.808 20.053334a256.426667 256.426667 0 0 0 190.549333-180.053334c5.546667-19.754667-10.453333-37.888-30.976-37.888H578.133333a34.133333 34.133333 0 0 0-34.133333 34.133334V613.888z"  horiz-adv-x="1024" />
      
      <glyph glyph-name="package-1" unicode="&#59085;" d="M554.666667 490.666667V630.186667a148.906667 148.906667 0 0 0 52.565333-33.92l74.368-74.368c14.933333-14.933333 26.453333-32.853333 33.92-52.565334H576a21.333333 21.333333 0 0 0-21.333333 21.333334z m170.666666-74.325334V234.666667a106.794667 106.794667 0 0 0-106.666666-106.666667h-213.333334A106.794667 106.794667 0 0 0 298.666667 234.666667v298.666666A106.794667 106.794667 0 0 0 405.333333 640h96.341334c3.456 0 6.912-0.256 10.325333-0.512V490.666667a64 64 0 0 1 64-64h148.821333c0.256-3.413333 0.512-6.869333 0.512-10.325334z m-112.554666-81.621333a21.333333 21.333333 0 0 1-30.165334 0.725333l-76.8-73.216a21.333333 21.333333 0 0 0-31.061333 0.853334l-33.877333 30.165333a21.333333 21.333333 0 1 1-28.416-31.829333l32.938666-29.354667a64 64 0 0 1 90.154667-0.341333l76.501333 72.832a21.333333 21.333333 0 0 1 0.725334 30.165333z"  horiz-adv-x="1024" />
      
      <glyph glyph-name="key" unicode="&#59086;" d="M459.008 391.3216l304.6912 304.6912a42.6496 42.6496 0 0 0 60.3648-60.3136l-30.208-30.208 75.4176-75.4176A42.7008 42.7008 0 1 0 808.96 469.7088l-75.4688 75.4688-60.3136-60.3648 60.3136-60.3136a42.7008 42.7008 0 0 0-60.3136-60.416l-60.3136 60.416-93.5424-93.5424a213.4016 213.4016 0 1 0-343.552 17.5104 213.3504 213.3504 0 0 0 283.2384 42.8544z m8.7552-143.5648A128 128 0 0 1 250.88 303.7184a128 128 0 0 1 180.992-180.9408 128.2048 128.2048 0 0 1 35.8912 124.9792z"  horiz-adv-x="1024" />
      
      <glyph glyph-name="shizhong" unicode="&#59087;" d="M512 810.666667c235.648 0 426.666667-191.018667 426.666667-426.666667s-191.018667-426.666667-426.666667-426.666667S85.333333 148.352 85.333333 384 276.352 810.666667 512 810.666667z m0-85.333334a341.333333 341.333333 0 1 1 0-682.666666 341.333333 341.333333 0 0 1 0 682.666666z m-42.666667-106.154666a42.666667 42.666667 0 0 0 42.368-37.674667l0.298667-4.992V384h193.28a42.666667 42.666667 0 0 0 42.368-37.674667l0.256-4.992a42.666667 42.666667 0 0 0-37.674667-42.368L705.28 298.666667H469.333333a42.666667 42.666667 0 0 0-42.368 37.674666L426.666667 341.333333V576.512a42.666667 42.666667 0 0 0 42.666666 42.666667z"  horiz-adv-x="1024" />
      
      <glyph glyph-name="shangchuan" unicode="&#59054;" d="M875.946667 351.978667l0.896-0.064c0.469333-0.021333 0.938667-0.064 1.386666-0.128l0.917334-0.128a32.938667 32.938667 0 0 0 2.346666-0.426667 29.376 29.376 0 0 0 2.709334-0.704l0.682666-0.213333 1.429334-0.512 0.597333-0.234667 0.256-0.106667 1.258667-0.576 0.917333-0.448c0.490667-0.234667 0.917333-0.533333 1.386667-0.789333 0.213333-0.106667 0.426667-0.213333 0.597333-0.341333l0.938667-0.597334a32.128 32.128 0 0 0 4.842666-3.925333l0.170667-0.170667 106.666667-106.666666a32 32 0 1 0-45.226667-45.226667l-52.053333 52.032V21.333333a32 32 0 0 0-64 0V242.752l-52.053334-52.053333a32 32 0 1 0-45.226666 45.269333l107.157333 107.157333 0.704 0.64a29.930667 29.930667 0 0 0 3.797333 2.944c0.298667 0.213333 0.618667 0.426667 0.938667 0.597334l0.597333 0.341333 1.365334 0.789333 0.938666 0.426667c0.426667 0.213333 0.853333 0.426667 1.28 0.597333l0.256 0.106667 0.576 0.213333 0.938667 0.362667 0.746667 0.256 0.426666 0.149333 1.493334 0.426667c0.448 0.128 0.896 0.213333 1.344 0.298667a38.058667 38.058667 0 0 0 2.24 0.384l0.896 0.128c0.448 0.064 0.917333 0.106667 1.386666 0.128l0.917334 0.064 0.576 0.021333h1.408l0.576-0.021333zM789.333333 768a160 160 0 0 0 160-160v-182.442667a32 32 0 0 0-64 0V608A96 96 0 0 1 789.333333 704H192a96 96 0 0 1-96-96v-426.666667c0-2.88 0.149333-5.717333 0.405333-8.533333l301.653334 279.744a202.666667 202.666667 0 0 0 285.013333-9.322667l65.493333-69.226666a32 32 0 0 0-46.485333-43.989334l-65.493333 69.248a138.666667 138.666667 0 0 1-195.029334 6.378667L128.448 115.2c-1.066667-0.981333-2.218667-1.834667-3.370667-2.666667A95.637333 95.637333 0 0 1 192 85.333333h487.253333a32 32 0 0 0 0-64H192a160 160 0 0 0-160 160v426.666667A160 160 0 0 0 192 768h597.333333z m-512-128a64 64 0 1 0 0-128 64 64 0 0 0 0 128z"  horiz-adv-x="1024" />
      
      <glyph glyph-name="a-MainController-1" unicode="&#59061;" d="M393.846154 531.692308a29.538462 29.538462 0 0 0 44.307692 25.6l255.960616-147.692308a29.538462 29.538462 0 0 0 0-51.160615l-255.960616-147.613539a29.538462 29.538462 0 0 0-44.307692 25.6V531.692308z"  horiz-adv-x="1024" />
      
      <glyph glyph-name="titok" unicode="&#59412;" d="M527.136 704h113.12c9.984-92.544 61.248-143.136 154.08-153.056v-110.4c-26.656-3.52-96.64 6.56-154.368 47.136v-8.608c0-70.016 0.224-140 0-210.016-0.32-89.856-56.544-167.232-141.024-194.752a205.216 205.216 0 0 0-264.32 149.536c-26.144 113.792 53.824 229.664 169.376 245.024a318.88 318.88 0 0 0 38.048 2.304c8.32 0.128 16.64-1.344 25.28-2.144v-116.192c-6.656 1.408-12.96 3.456-19.392 4.064-37.376 3.712-68.032-9.024-88.704-40.64-20.672-31.616-21.024-64.704-1.408-96.48 19.648-31.808 49.824-46.656 87.52-43.008 47.584 4.608 81.792 43.2 81.824 91.584 0.096 141.824 0.096 283.648 0 425.472V704z"  horiz-adv-x="1024" />
      
      <glyph glyph-name="kongzhuangtai" unicode="&#59047;" d="M402.432 761.610667c49.706667 0 90.197333-40.48 90.197333-90.186667V652.8a58.24 58.24 0 0 1 58.186667-58.208h221.226667c49.706667 0 90.197333-40.48 90.197333-90.186667v-54.4l15.264-4.533333c22.058667-6.538667 40.832-21.365333 52.661333-42.730667l0.010667-0.010666c16.181333-29.205333 15.264-63.221333-2.453333-91.52l-0.010667-0.010667L764.117333 49.813333a89.557333 89.557333 0 0 0-76.437333-42.325333H178.773333c-33.386667 0-62.72 17.28-78.890666 46.506667-11.061333 19.946667-14.058667 41.984-9.418667 62.805333l0.512 2.293333V671.424c0 49.706667 40.48 90.186667 90.186667 90.186667h221.269333z m-60.053333-344.352c-20.128 0-38.656-10.24-49.333334-27.317334L129.472 128.597333l-1.397333-2.346666a61.365333 61.365333 0 0 1-3.552-7.328l-1.557334-3.84v-6.250667c0-2.005333-0.362667-3.914667-1.045333-5.706667l-1.685333-4.394666 0.32-4.693334a59.84 59.84 0 0 1 7.296-24.533333c4.704-8.512 19.861333-30.026667 50.933333-30.026667h508.906667c20.138667 0 38.645333 10.250667 49.333333 27.328l163.594667 261.376c16.490667 26.336 6.293333 50.581333 1.589333 59.072h-0.010667l-1.013333 1.738667c-5.642667 9.344-20.768 28.266667-49.898667 28.266667h-508.906666zM181.162667 729.621333a58.250667 58.250667 0 0 1-58.208-58.197333v-492.906667l142.976 228.373334a89.589333 89.589333 0 0 0 76.448 42.346666h487.882666v55.157334a58.261333 58.261333 0 0 1-58.208 58.208H550.805333c-49.706667 0-90.176 40.48-90.176 90.186666v18.624a58.250667 58.250667 0 0 1-58.197333 58.208H181.152z"  horiz-adv-x="1024" />
      
      <glyph glyph-name="yidong" unicode="&#59046;" d="M480 761.6c50.24 0 98.528-8.928 143.232-25.312 14.912-5.472 23.552-21.088 20.288-36.64-2.304-11.04-3.52-22.4-3.52-34.048 0-99.264 90.56-186.72 213.12-191.744 14.08-0.576 26.176-10.336 29.696-24A416.64 416.64 0 0 0 896 345.6c0-229.76-186.24-416-416-416s-416 186.24-416 416 186.24 416 416 416z m-1.536-164.864a230.4 230.4 0 0 0-230.4-230.4 230.4 230.4 0 0 0 230.4-230.4 230.4 230.4 0 0 0 230.4 230.4 230.4 230.4 0 0 0-230.4 230.4zM834.88 769.504a136.96 136.96 0 0 1 116.992-118.496c3.552-0.448 3.552-5.568 0-6.016a136.96 136.96 0 0 1-116.992-118.464c-0.384-3.328-5.184-3.328-5.536 0a136.96 136.96 0 0 1-120.448 118.88c-3.072 0.32-3.072 4.832 0 5.184a136.96 136.96 0 0 1 120.448 118.912c0.352 3.296 5.152 3.296 5.536 0zM707.616 853.12c3.456-27.616 25.184-49.6 52.736-53.376 1.6-0.192 1.6-2.496 0-2.688-27.52-3.808-49.28-25.76-52.736-53.408-0.16-1.472-2.336-1.472-2.496 0a61.696 61.696 0 0 1-54.24 53.6c-1.408 0.128-1.408 2.176 0 2.304a61.696 61.696 0 0 1 54.24 53.6c0.16 1.472 2.336 1.472 2.496 0z"  horiz-adv-x="1024" />
      
      <glyph glyph-name="reddit" unicode="&#59045;" d="M725.3248 394.6496A52.8128 52.8128 0 0 1 672 448c-12.8 0-25.6-4.2752-34.1504-12.8-32 19.2-70.4 32-115.2 34.1248l23.4752 85.3504 72.5504-21.3504a42.6496 42.6496 0 1 1 42.6496 42.6752c-14.9248 0-29.8496-8.5504-36.2496-21.3504l-85.3504 21.3504c-6.4 2.1248-10.6496-2.1504-12.8-8.5504l-25.6-98.1248c-42.6496-2.1248-83.2-14.9248-115.2-34.1248-8.5248 8.5248-21.3248 12.8-34.1248 12.8a52.8128 52.8128 0 0 1-53.3504-53.3504c0-19.2 8.5504-34.1248 23.4752-44.8l-2.1248-19.2c0-76.8 85.3248-138.6496 192-138.6496 106.6496 0 192 61.8496 192 138.6496l-2.1504 19.2c14.9504 10.6752 23.4752 25.6 23.4752 44.8z m-277.3248-6.4c14.9248 0 25.6-12.8 25.6-25.6s-10.6752-25.6-25.6-25.6c-14.9504 0-25.6 10.6752-25.6 25.6 0 14.9504 10.6496 25.6 25.6 25.6z m145.0496-115.2c-38.4-23.4496-123.7248-23.4496-162.1248 0-4.2496 4.2752-6.4 10.6752-2.1248 14.9504 4.2496 4.2496 10.6496 6.4 14.9248 2.1248 25.6-19.2 110.9504-19.2 136.5504 0 4.2496 4.2752 10.6496 2.1504 14.9248-2.1248 4.2496-4.2752 2.1248-10.6752-2.1504-14.9504z m-17.0496 64c-14.9504 0-25.6 12.8-25.6 25.6 0 14.9504 12.8 25.6 25.6 25.6 14.9248 0 25.6-12.8 25.6-25.6 0-14.9248-10.6752-25.6-25.6-25.6z"  horiz-adv-x="1024" />
      
      <glyph glyph-name="feiji" unicode="&#59041;" d="M730.5472 557.2352a9.3696 9.3696 0 0 1-6.4 6.9376 32.9216 32.9216 0 0 1-17.2544-1.2288s-384.512-138.1888-406.4512-153.4976c-4.7616-3.3024-6.3232-5.1968-7.1168-7.4752-3.7888-10.88 8.0128-15.6928 8.0128-15.6928l99.1232-32.2816a10.9824 10.9824 0 0 1 5.0176 0.3072c22.528 14.2336 226.816 143.232 238.6176 147.5584 1.8432 0.5632 3.2256 0 2.9184-1.3824-4.8128-16.5376-181.248-173.312-182.1952-174.2592a3.7888 3.7888 0 0 1-1.3824-3.2256l-9.216-96.7168s-3.8656-30.1568 26.2656 0a824.5248 824.5248 0 0 0 52.096 47.6672c34.0736-23.5008 70.7584-49.536 86.5792-63.0784a27.52 27.52 0 0 1 20.0704-7.7568c15.104 0.5632 19.2 17.0752 19.2 17.0752s70.0416 281.9072 72.4224 319.6672c0.2048 3.712 0.512 6.0928 0.5376 8.6272a31.36 31.36 0 0 1-0.8448 8.7552z"  horiz-adv-x="1024" />
      
      <glyph glyph-name="twwinte" unicode="&#59042;" d="M642.2528 587.776h69.5552l-151.7824-173.5168 178.5088-236.0576h-139.776l-109.6448 143.1808-125.2864-143.1808h-69.5296l162.432 185.5488-171.264 224.0512h143.3856l98.9952-130.944 114.432 130.944z m-24.448-368.128h38.5024L407.808 548.3776h-41.216l251.2384-328.704z"  horiz-adv-x="1024" />
      
      <glyph glyph-name="ins" unicode="&#59043;" d="M512 314.4192a69.4784 69.4784 0 1 1 0 138.9824 69.4784 69.4784 0 0 1 0-138.9824zM598.8352 592.384h-173.696a121.7536 121.7536 0 0 1-121.6-121.6v-173.7216a121.7536 121.7536 0 0 1 121.6256-121.6h173.7216a121.7536 121.7536 0 0 1 121.6 121.6512V470.784a121.7536 121.7536 0 0 1-121.6512 121.6zM512 279.7312a104.3456 104.3456 0 0 0-104.2176 104.2432A104.32 104.32 0 0 0 512 488.1664a104.32 104.32 0 0 0 104.2432-104.2176A104.3456 104.3456 0 0 0 512 279.7056z m121.6 208.4608a17.3824 17.3824 0 1 0 0 34.7648 17.3824 17.3824 0 0 0 0-34.7648z"  horiz-adv-x="1024" />
      
      <glyph glyph-name="youtobe" unicode="&#59044;" d="M748.032 505.7536a62.5664 62.5664 0 0 1-43.392 44.6208C666.112 561.2032 512 561.2032 512 561.2032s-154.0864 0-192.6144-10.4448c-20.6848-5.8368-37.7088-23.3472-43.392-45.0304-10.1376-39.6288-10.1376-121.7536-10.1376-121.7536s0-82.56 10.1376-121.7536a62.592 62.592 0 0 1 43.392-44.6464c38.912-10.8288 192.6144-10.8288 192.6144-10.8288s154.112 0 192.64 10.4192a62.5664 62.5664 0 0 1 43.392 44.6208c10.1376 39.6288 10.1376 121.7792 10.1376 121.7792s0.4096 82.56-10.1376 122.1632z m-285.0816-197.6576v151.808L591.0528 384l-128.128-75.8784v-0.0256z"  horiz-adv-x="1024" />
      
      <glyph glyph-name="discord1" unicode="&#59040;" d="M472.2432 419.328a24.4224 24.4224 0 0 1 0-48.7168 23.296 23.296 0 0 1 22.4256 24.3456 23.2448 23.2448 0 0 1-22.4256 24.3712z m80.0768 0a24.448 24.448 0 1 1 22.4512-24.3712 23.3728 23.3728 0 0 1-22.4 24.3712h-0.0512zM659.0208 603.392H364.9792a45.056 45.056 0 0 1-44.9792-45.2608v-296.6016a45.1328 45.1328 0 0 1 44.9792-45.2608h248.832l-11.6224 40.6016 28.0832-26.0608 26.5472-24.576 47.1808-41.7024V558.1568a45.056 45.056 0 0 1-44.9792 45.2352z m-84.7104-286.6176s-7.8848 9.4464-14.464 17.8176a69.248 69.248 0 0 1 39.7568 26.0608c-7.8848-5.248-16.3584-9.6-25.2416-12.9536a144.384 144.384 0 0 0-31.7952-9.4208 153.6512 153.6512 0 0 0-56.832 0.2304 184.1408 184.1408 0 0 0-32.256 9.4208 131.584 131.584 0 0 0-25.1392 13.0048c9.3952-12.8512 22.9888-22.016 38.4-25.9072-6.5792-8.32-14.6944-18.2016-14.6944-18.2016a79.5648 79.5648 0 0 0-66.9184 33.3568 293.8112 293.8112 0 0 0 31.5392 127.9232 108.4928 108.4928 0 0 0 61.696 23.04l2.2016-2.6368a148.0192 148.0192 0 0 1-57.7024-28.7488s4.8128 2.6368 12.9536 6.3744a164.8384 164.8384 0 0 0 49.8432 13.824 21.504 21.504 0 0 0 3.7376 0.4352 178.8672 178.8672 0 0 0 110.3616-20.6336 146.0224 146.0224 0 0 1-54.6304 27.8784l3.072 3.5072c22.4768-1.1008 44.032-9.1392 61.7216-23.04a293.8368 293.8368 0 0 0 31.5392-127.9232 80.1792 80.1792 0 0 0-67.1488-33.408z"  horiz-adv-x="1024" />
      
      <glyph glyph-name="close1" unicode="&#58901;" d="M240.45037 727.988148l2.351408-2.161778 289.905778-289.905777 279.286518 279.248592a42.666667 42.666667 0 0 0 62.501926-58.026666L872.296296 654.791111l-279.286518-279.210667 279.286518-279.248592a42.666667 42.666667 0 0 0-58.026666-62.539852l-2.313482 2.161778-279.286518 279.248592-289.905778-289.943703a42.666667 42.666667 0 0 0-62.501926 58.026666l2.161778 2.313482 289.943703 289.981629L182.423704 665.486222a42.666667 42.666667 0 0 0 58.026666 62.501926z"  horiz-adv-x="1024" />
      
      <glyph glyph-name="arrow-right" unicode="&#59039;" d="M375.168-8.832a42.6752 42.6752 0 0 0 0 60.3392L707.6608 384 375.168 716.4928a42.6752 42.6752 0 1 0 60.3392 60.3392L798.208 414.208c16.64-16.6656 16.64-43.6992 0-60.3392L435.5072-8.8576c-16.64-16.6656-43.6736-16.6656-60.3392 0z"  horiz-adv-x="1024" />
      
      <glyph glyph-name="close2" unicode="&#59038;" d="M708.0192 580.0192c11.6992-11.6992 11.6992-29.2608 0-38.0416L550.0416 384l157.9776-157.9776c11.6992-11.7248 11.6992-29.2608 0-38.0416-11.6992-11.6992-29.2608-11.6992-38.0416 0L512 345.9584l-157.9776-157.9776c-11.7248-11.6992-29.2608-11.6992-38.0416 0-11.6992 11.6992-11.6992 29.2608 0 38.0416L473.9584 384l-157.9776 157.9776c-11.6992 11.7248-11.6992 29.2608 0 38.0416 11.6992 8.7808 29.2608 11.6992 38.0416 0L512 422.0416l157.9776 157.9776c8.7808 11.6992 29.2608 11.6992 38.0416 0z"  horiz-adv-x="1024" />
      
      <glyph glyph-name="icon-3d" unicode="&#59037;" d="M864.768 630.997333L544.853333 822.570667a63.914667 63.914667 0 0 1-65.728 0l-319.893333-191.573334a63.957333 63.957333 0 0 1-31.104-54.890666V185.173333a63.957333 63.957333 0 0 1 31.978667-55.381333L480-54.933333a63.914667 63.914667 0 0 1 63.957333 0l319.893334 184.704a63.936 63.936 0 0 1 32 55.381333V576.106667a63.957333 63.957333 0 0 1-31.104 54.869333zM512 767.68l288.789333-172.928-289.066666-173.226667-288.597334 173.162667L512 767.701333zM192.106667 538.709333l287.616-172.586666v-347.029334L192.106667 185.173333V538.688z m351.573333-519.936V366.122667l288.213333 172.714666v-353.685333l-288.213333-166.4z"  horiz-adv-x="1024" />
      
      <glyph glyph-name="arrow-right-bold" unicode="&#59033;" d="M170.6496 340.2496c0-23.0144 5.0688-38.6304 15.1808-46.848 10.0864-8.192 26.2656-12.3136 48.512-12.3136h47.744c21.76 0 44.8512-0.128 69.376-0.4096 24.5248-0.256 48.384-0.4096 71.6288-0.4096h55.3472c19.2 0 34.5088-2.048 45.8752-6.144 11.3664-4.1216 16.7936-13.568 16.2816-28.3648 0-10.9568 0.256-23.9872 0.768-39.04 0.512-15.0784 0.768-28.3648 0.768-39.8592 0-19.2 4.7872-31.3856 14.3872-36.5824 9.6-5.1968 22.016-1.5104 37.1456 11.1104a15737.088 15737.088 0 0 0 53.8368 46.4128c20.736 17.8176 41.8304 36.0448 63.3088 54.656 21.4784 18.6368 42.7008 36.992 63.6672 55.0656 20.992 18.0736 39.552 33.9712 55.7312 47.6672 15.1552 13.1584 22.8608 25.6 23.1168 37.376 0.256 11.776-6.7072 23.9872-20.864 36.608a2340.864 2340.864 0 0 1-50.7904 45.568c-19.712 17.28-40.192 35.072-61.3888 53.4528-21.248 18.3552-42.0864 36.5568-62.5408 54.6304l-54.9632 48.512c-17.6896 15.3344-32.2304 21.2224-43.5968 17.664-11.3664-3.584-17.0496-15.2064-17.0496-34.944v-20.5312c0-7.68-0.128-15.616-0.384-23.8336l-0.768-24.2432c-0.256-7.936-0.384-14.9248-0.384-20.9664-0.512-13.696-4.5312-22.3232-12.1088-25.8816-7.5776-3.584-17.9456-5.3504-31.0784-5.3504-14.6688 0-33.8688 0.1536-57.6256 0.4096-23.7568 0.2816-48.512 0.4096-74.2912 0.4096-25.7792 0-50.7904 0.1536-75.0592 0.4096a5453.056 5453.056 0 0 1-59.136 0.4096c-6.5536 0-13.3888-0.5376-20.48-1.6384a44.9536 44.9536 0 0 1-19.3024-7.808c-5.8112-4.096-10.624-9.856-14.4128-17.2544-3.7888-7.3984-5.6832-17.1264-5.6832-29.184 0-14.7712-0.128-29.0304-0.384-42.7264-0.256-13.696-0.384-29.0304-0.384-46.0288z"  horiz-adv-x="1024" />
      
      <glyph glyph-name="checkbox" unicode="&#59034;" d="M761.514667 618.368a64 64 0 0 0 47.786666-14.72 63.957333 63.957333 0 0 0 6.528-91.221333h0.042667l-286.890667-340.352a64 64 0 0 0-71.253333-18.645334 63.872 63.872 0 0 0-21.973333 13.909334h-0.042667l-222.549333 216.064-4.522667 4.522666a63.872 63.872 0 0 0 92.757333 87.68l174.08-168.832 242.816 287.914667a63.914667 63.914667 0 0 0 43.221334 23.68z m-300.288-443.306667v0.085334-0.042667zM213.717333 436.48z m11.605334 24.106667a42.666667 42.666667 0 0 1-5.333334-6.698667h0.042667a42.538667 42.538667 0 0 0 5.290667 6.656l0.768 0.725333-0.768-0.682666z m509.269333 120.405333l-110.293333-130.816 110.293333 130.773333 0.682667 0.853334-0.682667-0.853334zM282.24 464.170667l-0.981333 0.810666 0.981333-0.810666z m-51.285333 1.152l-1.450667-1.066667c0.426667 0.384 0.981333 0.682667 1.450667 1.066667z m25.088 8.149333a42.410667 42.410667 0 0 1-16.64-3.328v-0.042667A42.538667 42.538667 0 0 0 256 473.429333v0.042667z m11.093333-1.578667l-1.194667 0.298667 1.237334-0.298667zM802.986667 530.517333z m6.784 15.701334z m0 17.066666c-0.042667 0.426667-0.170667 0.853333-0.256 1.237334l0.256-1.194667z m-69.973334 23.168z m55.765334 0.853334c0.64-0.512 1.194667-1.066667 1.749333-1.621334-0.554667 0.554667-1.109333 1.152-1.706667 1.664l-0.896 0.64 0.853334-0.682666z m-4.522667 3.328l-1.493333 0.853333 1.493333-0.853333z m-37.205333 4.181333z"  horiz-adv-x="1024" />
      
      <glyph glyph-name="selectmore" unicode="&#59035;" d="M741.6064 614.4c10.496 0 19.0208-8.448 19.2-18.8928v-321.3056a19.2 19.2 0 0 0-18.8928-19.2h-100.7104v-101.1968a19.2 19.2 0 0 0-19.2-19.2H300.8a19.2 19.2 0 0 0-19.2 19.2V475.008a19.2 19.2 0 0 0 19.2 19.2h100.608V595.2c0 10.496 8.4224 19.0208 18.8672 19.2H741.632z m-420.4032-159.7952v-280.3968H601.6V254.976h-180.992a19.2 19.2 0 0 0-19.2 18.8928V454.6048h-80.2048z m400 120.192H441.0112v-280.192h280.192V574.7968z m-32.1024-90.2144l0.4608-0.4352-113.6128-113.152a19.2 19.2 0 0 0-26.624-0.4864l-76.0576 70.528a38.4 38.4 0 0 0 54.272 2.048l34.3808-31.872 73.3184 73.0368a38.4 38.4 0 0 0 53.4016 0.768l0.4608-0.4352z"  horiz-adv-x="1024" />
      
      <glyph glyph-name="download" unicode="&#59036;" d="M928 384a394.666667 394.666667 0 1 1-789.333333 0 394.666667 394.666667 0 0 1 789.333333 0z m64 0c0-253.312-205.354667-458.666667-458.666667-458.666667S74.666667 130.688 74.666667 384 280.021333 842.666667 533.333333 842.666667 992 637.312 992 384zM638.72 449.28a32 32 0 1 0 45.226667-45.226667l-128-128a32 32 0 0 0-45.226667 0l-128 128a32 32 0 1 0 45.226667 45.226667l105.386666-105.386667 105.386667 105.386667zM501.333333 298.666667V597.333333a32 32 0 0 0 64 0v-298.666666a32 32 0 0 0-64 0zM746.666667 202.666667a32 32 0 0 0 0-64h-426.666667a32 32 0 0 0 0 64h426.666667z"  horiz-adv-x="1066" />
      
      <glyph glyph-name="arrow-left" unicode="&#58978;" d="M646.101333 42.666667a34.56 34.56 0 0 0-25.856 11.989333l-268.202666 300.373333c-14.293333 15.957333-14.293333 41.898667 0 57.898667l268.202666 300.373333a33.877333 33.877333 0 0 0 51.712 0 44.501333 44.501333 0 0 0 0-57.898666L429.610667 384 672 112.64a44.501333 44.501333 0 0 0 0-57.941333A34.432 34.432 0 0 0 646.101333 42.666667z"  horiz-adv-x="1024" />
      
      <glyph glyph-name="texture" unicode="&#58959;" d="M512 768C299.936 768 128 596.064 128 384s171.936-384 384-384c75.84 0 146.496 21.984 206.048 59.904l-79.936 79.936a26.784 26.784 0 0 0 37.888 37.888l85.568-85.568c13.6 11.616 26.368 24.192 38.208 37.568l-60.64 60.64a26.784 26.784 0 0 0 37.888 37.888l55.616-55.616c10.208 15.424 19.328 31.68 27.232 48.544l-70.208 70.208a26.784 26.784 0 0 0 37.888 37.888l53.12-53.12c9.984 34.24 15.328 70.4 15.328 107.84 0 212.064-171.936 384-384 384z m-71.456-196.48a116.096 116.096 0 0 1-116.064-116.064 26.784 26.784 0 1 0-53.6 0 169.664 169.664 0 0 0 169.664 169.664 26.784 26.784 0 1 0 0-53.6z"  horiz-adv-x="1024" />
      
      <glyph glyph-name="white" unicode="&#58962;" d="M512 714.432C329.504 714.432 181.568 566.496 181.568 384S329.504 53.568 512 53.568 842.432 201.504 842.432 384 694.496 714.432 512 714.432zM128 384C128 596.064 299.936 768 512 768s384-171.936 384-384-171.936-384-384-384S128 171.936 128 384zM440.672 571.424a116.096 116.096 0 0 1-116.096-116.096 26.784 26.784 0 0 0-53.568 0A169.664 169.664 0 0 0 440.64 624.96a26.784 26.784 0 1 0 0-53.568z"  horiz-adv-x="1024" />
      
      <glyph glyph-name="star" unicode="&#59030;" d="M488.16 573.024c13.92-106.24 101.632-190.592 212.736-205.12l3.104-5.248-3.104-5.184c-111.104-14.56-198.816-98.944-212.736-205.184l-5.056-2.944-5.024 2.944c-14.176 108.224-104.928 193.76-218.976 205.92L256 362.688l3.104 4.448c114.048 12.16 204.8 97.696 218.944 205.888l5.056 2.976 5.056-2.976zM685.76 638.816a94.848 94.848 0 0 1 81.056-82.08l1.184-2.08-1.184-2.08a94.848 94.848 0 0 1-81.024-82.048l-1.92-1.184-1.92 1.184a94.848 94.848 0 0 1-83.424 82.368l-1.184 1.76 1.184 1.792a94.848 94.848 0 0 1 83.424 82.368L683.84 640l1.92-1.184z"  horiz-adv-x="1024" />
      
      <glyph glyph-name="logout" unicode="&#59031;" d="M716.9536 517.8368a38.4 38.4 0 0 0 54.272 0l109.2608-109.2096a38.4512 38.4512 0 0 0 0-54.3744l-109.2096-109.2096a38.4 38.4 0 1 0-54.3232 54.3232l81.9712 82.1248-81.9712 82.0224a38.4 38.4 0 0 0 0 54.272zM850.3296 419.84a38.4 38.4 0 0 0 0-76.8H416.4096a38.4 38.4 0 0 0 0 76.8h433.92zM122.0096 384c0 116.2752 41.9328 211.968 111.9232 278.528C303.616 728.6272 398.7968 763.6992 501.76 763.6992a38.4 38.4 0 0 0 0-76.8c-85.6064 0-161.1264-28.9792-214.9376-80.128C233.3184 556.032 198.8096 481.024 198.8096 384c0-97.024 34.5088-171.9808 88.064-222.8224 50.3808-47.9232 119.9104-76.3904 198.9632-79.7696l15.9232-0.3072 3.8912-0.2048a38.4 38.4 0 0 0 0-76.3904l-3.8912-0.2048-19.2512 0.4096c-95.5392 4.096-183.2448 38.7072-248.576 100.7616-69.9904 66.56-111.9232 162.2016-111.9232 278.528z"  horiz-adv-x="1024" />
      
      <glyph glyph-name="discord" unicode="&#59032;" d="M796.544 647.68a2.208 2.208 0 0 1-1.12 1.056A706.272 706.272 0 0 1 619.52 704a2.656 2.656 0 0 1-2.816-1.376c-8.064-14.784-15.36-29.984-21.92-45.504a649.984 649.984 0 0 1-197.504 0 463.68 463.68 0 0 1-22.24 45.504 2.784 2.784 0 0 1-2.816 1.376 704.32 704.32 0 0 1-175.872-55.232 2.528 2.528 0 0 1-1.184-0.992c-112-169.376-142.688-308.032-127.616-471.2a3.04 3.04 0 0 1 1.12-2.048 713.28 713.28 0 0 1 215.744-110.4 2.752 2.752 0 0 1 3.008 1.024c16.672 22.944 31.424 47.264 44.16 72.672a2.784 2.784 0 0 1-1.504 3.84 469.44 469.44 0 0 0-67.392 32.544 2.784 2.784 0 0 0-1.376 2.24 2.816 2.816 0 0 0 1.088 2.4c4.544 3.424 9.024 6.976 13.376 10.624a2.656 2.656 0 0 0 2.816 0.384c141.376-65.344 294.464-65.344 434.208 0a2.656 2.656 0 0 0 2.816-0.352c4.384-3.68 8.864-7.232 13.44-10.656a2.784 2.784 0 0 0 1.088-2.4 2.816 2.816 0 0 0-1.344-2.24c-21.536-12.736-44.096-23.616-67.424-32.512a2.752 2.752 0 0 1-1.6-1.6 2.88 2.88 0 0 1 0.128-2.24c12.928-25.28 27.648-49.6 44.096-72.64a2.72 2.72 0 0 1 3.04-1.056 710.784 710.784 0 0 1 216.096 110.4 2.784 2.784 0 0 1 1.12 2.016c18.016 188.608-30.176 325.888-127.744 471.168z m-443.84-385.056c-42.56 0-77.632 39.552-77.632 88.128s34.4 88.16 77.664 88.16c43.584 0 78.304-39.904 77.632-88.16 0-48.576-34.4-88.128-77.632-88.128z m287.104 0c-42.56 0-77.632 39.552-77.632 88.128s34.4 88.16 77.632 88.16c43.584 0 78.336-39.904 77.664-88.16 0-48.576-34.08-88.128-77.664-88.128z"  horiz-adv-x="1024" />
      
      <glyph glyph-name="create" unicode="&#59026;" d="M512 800c50.272 0 98.56-8.96 143.264-25.344a32 32 0 0 0 20.288-36.608A166.016 166.016 0 0 1 672 704c0-96.16 84.992-181.248 201.728-191.04l11.392-0.704 5.184-0.64a32 32 0 0 0 24.48-23.36A416.64 416.64 0 0 0 928 384c0-229.76-186.24-416-416-416S96 154.24 96 384 282.24 800 512 800z m0-224c-28.256 0-52.224-55.04-60.672-131.328C375.008 436.256 320 412.288 320 384c0-28.288 55.04-52.16 131.328-60.64C459.744 247.04 483.712 192 512 192c28.288 0 52.192 55.04 60.64 131.36C648.96 331.808 704 355.712 704 384c0 28.288-55.04 52.224-131.36 60.672C564.192 520.992 540.288 576 512 576zM864.032 816c16.608 0 30.528-39.392 34.848-93.12 53.76-4.32 93.12-18.304 93.12-34.912s-39.392-30.528-93.12-34.848c-4.32-53.728-18.24-93.12-34.848-93.12s-30.592 39.36-34.88 93.12C775.36 657.44 736 671.36 736 688c0 16.608 39.36 30.592 93.12 34.88 4.32 53.76 18.304 93.152 34.912 93.152zM736 896c9.152 0 16.768-18.72 19.392-44.576 25.856-2.624 44.576-10.24 44.608-19.392 0-9.152-18.752-16.768-44.608-19.392C752.768 786.752 745.152 768 736 768s-16.768 18.752-19.392 44.64C690.752 815.264 672 822.88 672 832s18.752 16.768 44.608 19.392C719.232 877.28 726.848 896 736 896z"  horiz-adv-x="1024" />
      
      <glyph glyph-name="img-select" unicode="&#59029;" d="M826.496 364.416a79.92 79.92 0 0 0-79.904 79.792v63.52H682.88a79.92 79.92 0 0 0-79.888 79.792c0 17.92 6.016 34.4 16 47.728h-446.24a106.64 106.64 0 0 1-106.672-106.656V93.92a106.64 106.64 0 0 1 106.672-106.672h594.656a106.64 106.64 0 0 1 106.672 106.672v286.4a79.52 79.52 0 0 0-47.568-15.84v-0.064zM255.072 542.08c44.64 0 80.8-36.16 80.8-80.8s-36.16-80.8-80.8-80.8-80.8 36.16-80.8 80.8 36.16 80.8 80.8 80.8zM751.52 93.28h-530.88c-24.32 0-38.128 27.776-23.52 47.152l94.88 125.76a29.408 29.408 0 0 0 46.992 0l57.6-76.32c11.776-15.632 35.2-15.632 46.976 0l123.584 163.776a29.408 29.408 0 0 0 46.976 0L774.976 140.48c14.608-19.424 0.8-47.152-23.52-47.152l0.048-0.048zM826.496 407.2a37.2 37.2 0 0 1 37.232 37.12v106.192h106.4a37.2 37.2 0 0 1 37.216 37.12c0 20.48-16.688 37.12-37.232 37.12h-106.4V730.88c0 20.48-16.688 37.12-37.216 37.12a37.2 37.2 0 0 1-37.232-37.12v-106.192h-106.4a37.2 37.2 0 0 1-37.232-37.12c0-20.48 16.704-37.12 37.232-37.12h106.4v-106.176a37.232 37.232 0 0 1 37.232-37.12v0.048z"  horiz-adv-x="1024" />
      
      <glyph glyph-name="close" unicode="&#59027;" d="M729.216 601.2416a307.2 307.2 0 1 1-434.432-434.432 307.2 307.2 0 0 1 434.432 434.432zM617.5232 309.504a15.4624 15.4624 0 0 0 0-21.9392l-9.3184-9.3184a15.4624 15.4624 0 0 0-21.9392 0l-74.2912 74.7008-74.496-74.496a15.4368 15.4368 0 0 0-21.9392 0l-9.3184 9.3184a15.488 15.488 0 0 0 0 21.9648L480.9216 384l-74.496 74.496a15.4624 15.4624 0 0 0 0 21.9392l9.344 9.3184a15.4624 15.4624 0 0 0 21.9392 0l74.2656-74.7008 74.496 74.496a15.488 15.488 0 0 0 21.9392 0l9.344-9.3184a15.488 15.488 0 0 0 0-21.9648L543.0272 384l74.496-74.496z"  horiz-adv-x="1024" />
      
      <glyph glyph-name="upload" unicode="&#59028;" d="M103.616 542.72c0 12.896 4.928 25.408 14.08 34.688l132.416 132.8a44.32 44.32 0 0 0 64.704-1.504 49.472 49.472 0 0 0-1.408-67.744L263.36 590.72h609.184c25.28 0 45.76-21.44 45.76-48 0-26.528-20.48-47.904-45.76-47.904h-723.2c-18.688 0-35.488 11.872-42.432 30.08a50.24 50.24 0 0 0-3.296 17.856z m0-302.08c0 26.432 20.48 47.904 45.792 47.904h723.136c18.656 0 35.456-11.872 42.432-30.08a49.6 49.6 0 0 0-10.816-52.48l-132.384-132.8c-18.272-18.368-47.2-17.6-64.736 1.472a49.472 49.472 0 0 0 1.408 67.744l50.048 50.24H149.248c-25.152 0.064-45.632 21.504-45.632 48z"  horiz-adv-x="1024" />
      
    </font>
</defs>
</svg>
